ShareSpark

 

Author Topic: Alexa.&.Katie.S03.E01-08.Hindi.English.1080p.NF.WEB-DL.DD+5.1.x264-Telly  (Read 155 times)

0 Members and 1 Guest are viewing this topic.

Offline mkvCinemas

  • Topic Author
  • Head Admin™
  • Legend Member
  • *
  • Thank You: 1340
  • Reputation: 142
  • Activity:
    46.6%
  • Join Date: Sep 2019
  • Posts: 1509
Our Forum: You are not allowed to view links. Register or Login

You are not allowed to view links. Register or Login



********************************

Alexa.&.Katie.S03.E01-08.Hindi.English.1080p.NF.WEB-DL.DD+5.1.x264-Telly

********************************

Mediainfo:-
Format                      : Matroska
Format version              : Version 4
File size                   : 1.12 GiB
Duration                    : 26 min 39 s
Overall bit rate mode       : Variable
Overall bit rate            : 5 996 kb/s

Video
ID                          : 1
Format                      : AVC
Format/Info                 : Advanced Video Codec
Format profile              : Main@L4
Format settings             : CABAC / 3 Ref Frames
Format settings, CABAC      : Yes
Format settings, Reference  : 3 frames
Codec ID                    : V_MPEG4/ISO/AVC
Duration                    : 26 min 39 s
Bit rate mode               : Variable
Bit rate                    : 4 597 kb/s
Nominal bit rate            : 4 870 kb/s
Maximum bit rate            : 7 305 kb/s
Width                       : 1 920 pixels
Height                      : 1 080 pixels
Display aspect ratio        : 16:9
Frame rate mode             : Constant
Frame rate                  : 23.976 (24000/1001) FPS
Color space                 : YUV

Audio #1
ID                          : 2
Format                      : E-AC-3
Format/Info                 : Enhanced AC-3
Commercial name             : Dolby Digital Plus
Codec ID                    : A_EAC3
Duration                    : 26 min 39 s
Bit rate mode               : Constant
Bit rate                    : 640 kb/s
Channel(s)                  : 6 channels
Channel layout              : L R C LFE Ls Rs
Sampling rate               : 48.0 kHz
Frame rate                  : 31.250 FPS (1536 SPF)
Compression mode            : Lossy
Stream size                 : 122 MiB (11%)
Language                    : Hindi
Service kind                : Complete Main
Default                     : Yes
Forced                      : No
Encoded date                : UTC 2019-12-23 19:52:20

Audio #2
ID                          : 3
Format                      : E-AC-3
Format/Info                 : Enhanced AC-3
Commercial name             : Dolby Digital Plus
Codec ID                    : A_EAC3
Duration                    : 26 min 39 s
Bit rate mode               : Constant
Bit rate                    : 640 kb/s
Channel(s)                  : 6 channels
Channel layout              : L R C LFE Ls Rs
Sampling rate               : 48.0 kHz
Frame rate                  : 31.250 FPS (1536 SPF)
Compression mode            : Lossy
Stream size                 : 122 MiB (11%)
Language                    : English
Service kind                : Complete Main
Default                     : No
Forced                      : No
Encoded date                : UTC 2019-12-23 19:52:20

Text
ID                          : 4
Format                      : UTF-8
Codec ID                    : S_TEXT/UTF8
Codec ID/Info               : UTF-8 Plain Text
Title                       : English_Full
Language                    : English
Default                     : No
Forced                      : No


********************************

We don't add Watermark or Audio Tags.
Wherever you Share our Stuffs, Give Proper Credit to "mkvCinemas @Team Telly"
We Keep All Torrents. In case of re-seed, please pm.


********************************

You are not allowed to view links. Register or Login
You are not allowed to view links. Register or Login
You are not allowed to view links. Register or Login

********************************


ZIP Download Link

You are not allowed to view links. Register or Login



Single Download Link

You are not allowed to view links. Register or Login

You are not allowed to view links. Register or Login

You are not allowed to view links. Register or Login

You are not allowed to view links. Register or Login

You are not allowed to view links. Register or Login

You are not allowed to view links. Register or Login

You are not allowed to view links. Register or Login

You are not allowed to view links. Register or Login




You are not allowed to view links. Register or Login

********************************
 
Thanks given by: faisal1234

Offline faisal1234

  • Newbie
  • *
  • Reputation: 0
  • Activity:
    0.2%
  • Join Date: Sep 2019
  • Posts: 1
Thanks Bro

Please Upload

Alexa-Katie-S02-2019-1080p-NF-WEB-DL-HIN-Multi-DD-5-1-x264-Telly
 

Tags:
 

SimplePortal 2.3.7 © 2008-2020, SimplePortal