ShareSpark

 

Author Topic: Kaho Naa Pyaar Hai (2000) 1080p BluRay X264 DD 5.1-DDR [5 GB]  (Read 816 times)

0 Members and 1 Guest are viewing this topic.

Offline Retrovirus

  • Topic Author
  • V.I.P.
  • Devoted Member
  • *
  • Thanked: 121 times
  • Reputation: 5
  • Activity:
    0%
  • Join Date: Dec 2019
  • Posts: 158
  • Gender: Male
Kaho Naa Pyaar Hai (2000) 1080p BluRay X264 DD 5.1-DDR [5 GB]
« on: January 04, 2020, 12:16:42 PM »
Kaho Naa... Pyaar Hai (2000)
 

Director: Rakesh Roshan
Stars: Hrithik Roshan, Ameesha Patel, Anupam Kher, Dalip Tahil
 
Runtime: 172 min (taken from IMDb)
Genre: Action, Romance
 
Country: India
Released: 14 Jan 2000
 
Rating: 6.9 (may differ)
Votes: 12,640 (may differ)
 
Release Date: 14 Jan 2000 (taken from IMDb)
Viewer Rating (TV/MPAA): TV-14 (taken from IMDb)
 
Summary: A young girl meets the doppelganger of her deceased boyfriend and now has a chance to find the people who have murdered him.
 
Links: You are not allowed to view links. Register or Login

:info:

General
Unique ID                                : 311151737862434370550182913999046971291 (0xEA15A51975C38E7AF7029BEDE7BC0F9B)
Complete name                            : Kaho Naa Pyaar Hai.2000.1080P.Blu-Ray.MHD.X264.DD.5.1-DDR.mkv
Format                                   : Matroska
Format version                           : Version 4
File size                                : 4.69 GiB
Duration                                 : 2 h 42 min
Overall bit rate                         : 4 142 kb/s
Movie name                               : Kaho Naa... Pyaar Hai / Kaho Naa... Pyaar Hai
Encoded date                             : UTC 2019-04-28 23:16:39
Writing application                      : mkvmerge v28.2.0 ('The Awakening') 64-bit
Writing library                          : libebml v1.3.6 + libmatroska v1.4.9
Cover                                    : Yes
Attachments                              : cover.jpg
Writing frontend                         : StaxRip v2.0.0.0

Video
ID                                       : 1
Format                                   : AVC
Format/Info                              : Advanced Video Codec
Format profile                           : High@L4.1
Format settings                          : CABAC / 5 Ref Frames
Format settings, CABAC                   : Yes
Format settings, ReFrames                : 5 frames
Codec ID                                 : V_MPEG4/ISO/AVC
Duration                                 : 2 h 42 min
Bit rate                                 : 3 500 kb/s
Width                                    : 1 920 pixels
Height                                   : 816 pixels
Display aspect ratio                     : 2.35:1
Frame rate mode                          : Constant
Frame rate                               : 25.000 FPS
Color space                              : YUV
Chroma subsampling                       : 4:2:0
Bit depth                                : 8 bits
Scan type                                : Progressive
Bits/(Pixel*Frame)                       : 0.089
Stream size                              : 3.96 GiB (84%)
Writing library                          : x264 core 157 r2935 545de2f
Encoding settings                        : cabac=1 / ref=5 / deblock=1:-1:-1 / analyse=0x3:0x133 / me=umh / subme=10 / psy=1 / psy_rd=1.00:0.15 / mixed_ref=1 / me_range=24 / chroma_me=1 / trellis=2 / 8x8dct=1 / cqm=0 / deadzone=21,11 / fast_pskip=1 / chroma_qp_offset=-3 / threads=12 / lookahead_threads=2 / sliced_threads=0 / nr=0 / decimate=1 / interlaced=0 / bluray_compat=0 / constrained_intra=0 / bframes=8 / b_pyramid=2 / b_adapt=2 / b_bias=0 / direct=3 / weightb=1 / open_gop=0 / weightp=2 / keyint=250 / keyint_min=25 / scenecut=40 / intra_refresh=0 / rc_lookahead=60 / rc=2pass / mbtree=1 / bitrate=3500 / ratetol=1.0 / qcomp=0.60 / qpmin=0 / qpmax=69 / qpstep=4 / cplxblur=20.0 / qblur=0.5 / ip_ratio=1.40 / aq=1:1.00
Default                                  : Yes
Forced                                   : No
Color range                              : Limited
Color primaries                          : BT.709
Transfer characteristics                 : BT.709
Matrix coefficients                      : BT.709

Audio
ID                                       : 2
Format                                   : E-AC-3
Format/Info                              : Enhanced AC-3
Commercial name                          : Dolby Digital Plus
Codec ID                                 : A_EAC3
Duration                                 : 2 h 42 min
Bit rate mode                            : Constant
Bit rate                                 : 640 kb/s
Channel(s)                               : 6 channels
Channel layout                           : L R C LFE Ls Rs
Sampling rate                            : 48.0 kHz
Frame rate                               : 31.250 FPS (1536 SPF)
Compression mode                         : Lossy
Stream size                              : 742 MiB (15%)
Language                                 : Hindi
Service kind                             : Complete Main
Default                                  : No
Forced                                   : No

Text
ID                                       : 3
Format                                   : UTF-8
Codec ID                                 : S_TEXT/UTF8
Codec ID/Info                            : UTF-8 Plain Text
Duration                                 : 2 h 40 min
Bit rate                                 : 45 b/s
Count of elements                        : 1554
Stream size                              : 53.2 KiB (0%)
Language                                 : English
Default                                  : No
Forced                                   : No



:screenshots:






You are not allowed to view links. Register or Login

PASSWORD is R]k9#C9EX&FvP}*
« Last Edit: January 14, 2020, 08:28:41 PM by Retrovirus »
 
The following users thanked this post: TheLonelyOne, arpit, samii, Shakil, Mahesh, pbhavesh

Offline dhavalmanav

  • Semi Newbie
  • *
  • Thanked: 1 times
  • Reputation: 0
  • Activity:
    0%
  • Join Date: Nov 2019
  • Posts: 5
Re: Kaho Naa Pyaar Hai (2000) 1080p BluRay X264 DD 5.1-DDR [5 GB]
« Reply #1 on: January 04, 2020, 01:35:08 PM »
password does not match
 

Offline Retrovirus

  • Topic Author
  • V.I.P.
  • Devoted Member
  • *
  • Thanked: 121 times
  • Reputation: 5
  • Activity:
    0%
  • Join Date: Dec 2019
  • Posts: 158
  • Gender: Male
Re: Kaho Naa Pyaar Hai (2000) 1080p BluRay X264 DD 5.1-DDR [5 GB]
« Reply #2 on: January 04, 2020, 05:52:43 PM »
You are not allowed to view links. Register or Login
password does not match

its working fine :think: please check properly.
 

Offline dhavalmanav

  • Semi Newbie
  • *
  • Thanked: 1 times
  • Reputation: 0
  • Activity:
    0%
  • Join Date: Nov 2019
  • Posts: 5
Re: Kaho Naa Pyaar Hai (2000) 1080p BluRay X264 DD 5.1-DDR [5 GB]
« Reply #3 on: January 05, 2020, 02:34:38 PM »
thanks its working
 

Offline Adi7428

  • Begginer
  • *
  • Thanked: 7 times
  • Reputation: 0
  • Activity:
    4.2%
  • Join Date: Dec 2019
  • Posts: 85
Re: Kaho Naa Pyaar Hai (2000) 1080p BluRay X264 DD 5.1-DDR [5 GB]
« Reply #4 on: January 05, 2020, 08:23:50 PM »
Bro please upload bajirao mastani in 1080p
Bluray
 

Offline Sanrak

  • Semi Newbie
  • *
  • Thanked: 2 times
  • Reputation: 0
  • Activity:
    0%
  • Join Date: Dec 2019
  • Posts: 15
Re: Kaho Naa Pyaar Hai (2000) 1080p BluRay X264 DD 5.1-DDR [5 GB]
« Reply #5 on: January 14, 2020, 04:08:14 PM »
It would be great if you can Underline the password or highlight it because it's way more confusing
 

Offline Retrovirus

  • Topic Author
  • V.I.P.
  • Devoted Member
  • *
  • Thanked: 121 times
  • Reputation: 5
  • Activity:
    0%
  • Join Date: Dec 2019
  • Posts: 158
  • Gender: Male
Re: Kaho Naa Pyaar Hai (2000) 1080p BluRay X264 DD 5.1-DDR [5 GB]
« Reply #6 on: January 14, 2020, 08:27:42 PM »
You are not allowed to view links. Register or Login
It would be great if you can Underline the password or highlight it because it's way more confusing

 :okay:
 

Offline MySTeRIO

  • Newbie
  • *
  • Thanked: 1 times
  • Reputation: 1
  • Activity:
    0%
  • Join Date: Jan 2020
  • Posts: 1
  • Live Free...Share Free...
Re: Kaho Naa Pyaar Hai (2000) 1080p BluRay X264 DD 5.1-DDR [5 GB]
« Reply #7 on: January 15, 2020, 03:33:28 AM »
My rip Enjoy guys  :hat:
Live Free...Share Free...
 
The following users thanked this post: Retrovirus

Offline Saturnweb

  • V.I.P.
  • Devoted Member
  • *
  • Thanked: 330 times
  • Reputation: 32
  • Activity:
    0%
  • Join Date: Oct 2019
  • Posts: 152
  • Gender: Male
Re: Kaho Naa Pyaar Hai (2000) 1080p BluRay X264 DD 5.1-DDR [5 GB]
« Reply #8 on: January 15, 2020, 07:26:13 AM »
 :appl: :appl: :appl:
 

Offline mohammad1234

  • Semi Newbie
  • *
  • Thanked: 5 times
  • Reputation: 0
  • Activity:
    0%
  • Join Date: Nov 2019
  • Posts: 18
Re: Kaho Naa Pyaar Hai (2000) 1080p BluRay X264 DD 5.1-DDR [5 GB]
« Reply #9 on: January 20, 2020, 07:47:34 PM »
thank you very much . and i want movie Dil Tera Aashiq 1993 1080p on drive plz🙏🙏🙏
 

Offline blendar

  • Uploader
  • Begginer
  • *
  • Thanked: 164 times
  • Reputation: 8
  • Activity:
    1.2%
  • Join Date: Dec 2019
  • Posts: 53
  • Gender: Male
Re: Kaho Naa Pyaar Hai (2000) 1080p BluRay X264 DD 5.1-DDR [5 GB]
« Reply #10 on: January 20, 2020, 10:20:27 PM »
Here is the requested movie.........

Dil Tera Aashiq (1993)
You are not allowed to view links. Register or Login
 
The following users thanked this post: Retrovirus

Tags: 1080p bluray hindi x264 
 

SimplePortal 2.3.7 © 2008-2020, SimplePortal