ShareSpark

 

Author Topic: Joker (2019) 1080p BluRay 10-bit x265 TrueHD 7.1 Qman [UTR] [9.13 GB]  (Read 1913 times)

0 Members and 1 Guest are viewing this topic.

Offline Retrovirus

  • Topic Author
  • V.I.P.
  • Devoted Member
  • *
  • Thanked: 121 times
  • Reputation: 5
  • Activity:
    0%
  • Join Date: Dec 2019
  • Posts: 158
  • Gender: Male
Joker (2019)
 

Director: Todd Phillips
Stars: Joaquin Phoenix, Robert De Niro, Zazie Beetz, Frances Conroy
 
Runtime: 122 min (taken from IMDb)
Genre: Crime, Drama, Thriller
 
Country: Canada, USA
Released: 04 Oct 2019
 
Rating: 8.6 (may differ)
Votes: 593,943 (may differ)
 
Release Date: 04 Oct 2019 (taken from IMDb)
Viewer Rating (TV/MPAA): R (taken from IMDb)
 
Summary: In Gotham City, mentally troubled comedian Arthur Fleck is disregarded and mistreated by society. He then embarks on a downward spiral of revolution and bloody crime. This path brings him face-to-face with his alter-ego: the Joker.
 
Links: You are not allowed to view links. Register or Login


MEDIA INFO


General
Unique ID                                : 276550820983087562417148664523419056534 (0xD00DC02FAF7111ACBA387650A13C7996)
Complete name                            : Joker.(2019).1080p.BluRay.10-bit.x265.TrueHD.7.1 Qman[UTR].mkv
Format                                   : Matroska
Format version                           : Version 4
File size                                : 9.14 GiB
Duration                                 : 2 h 1 min
Overall bit rate mode                    : Variable
Overall bit rate                         : 10.7 Mb/s
Encoded date                             : UTC 2019-12-24 17:04:51
Writing application                      : mkvmerge v41.0.0 ('Smarra') 64-bit
Writing library                          : libebml v1.3.9 + libmatroska v1.5.2

Video
ID                                       : 1
Format                                   : HEVC
Format/Info                              : High Efficiency Video Coding
Format profile                           : Main 10@L4@Main
Codec ID                                 : V_MPEGH/ISO/HEVC
Duration                                 : 2 h 1 min
Bit rate                                 : 6 839 kb/s
Width                                    : 1 920 pixels
Height                                   : 1 040 pixels
Display aspect ratio                     : 1.85:1
Frame rate mode                          : Constant
Frame rate                               : 23.976 (24000/1001) FPS
Color space                              : YUV
Chroma subsampling                       : 4:2:0
Bit depth                                : 10 bits
Bits/(Pixel*Frame)                       : 0.143
Stream size                              : 5.82 GiB (64%)
Writing library                          : x265 3.2+9-971180b100f8:[Windows][GCC 9.2.1][64 bit] 10bit
Encoding settings                        : cpuid=1111039 / frame-threads=4 / numa-pools=16 / wpp / no-pmode / no-pme / no-psnr / no-ssim / log-level=2 / input-csp=1 / input-res=1920x1040 / interlace=0 / total-frames=175243 / level-idc=0 / high-tier=1 / uhd-bd=0 / ref=4 / no-allow-non-conformance / no-repeat-headers / annexb / no-aud / no-hrd / info / hash=0 / no-temporal-layers / open-gop / min-keyint=23 / keyint=250 / gop-lookahead=0 / bframes=8 / b-adapt=2 / b-pyramid / bframe-bias=0 / rc-lookahead=80 / lookahead-slices=4 / scenecut=40 / radl=0 / no-splice / no-intra-refresh / ctu=64 / min-cu-size=8 / no-rect / no-amp / max-tu-size=32 / tu-inter-depth=1 / tu-intra-depth=1 / limit-tu=0 / rdoq-level=2 / dynamic-rd=0.00 / no-ssim-rd / signhide / no-tskip / nr-intra=0 / nr-inter=0 / no-constrained-intra / no-strong-intra-smoothing / max-merge=3 / limit-refs=3 / limit-modes / me=3 / subme=5 / merange=57 / temporal-mvp / no-frame-dup / no-hme / weightp / no-weightb / no-analyze-src-pics / deblock=-1:-1 / no-sao / no-sao-non-deblock / rd=4 / selective-sao=0 / no-early-skip / no-rskip / no-fast-intra / no-tskip-fast / no-cu-lossless / no-b-intra / no-splitrd-skip / rdpenalty=0 / psy-rd=1.60 / psy-rdoq=5.00 / no-rd-refine / no-lossless / cbqpoffs=0 / crqpoffs=0 / rc=crf / crf=17.0 / qcomp=0.60 / qpstep=4 / stats-write=0 / stats-read=0 / ipratio=1.40 / pbratio=1.30 / aq-mode=2 / aq-strength=1.00 / cutree / zone-count=0 / no-strict-cbr / qg-size=32 / no-rc-grain / qpmax=69 / qpmin=0 / no-const-vbv / sar=0 / overscan=0 / videoformat=5 / range=0 / colorprim=2 / transfer=2 / colormatrix=2 / chromaloc=0 / display-window=0 / cll=0,0 / min-luma=0 / max-luma=1023 / log2-max-poc-lsb=8 / vui-timing-info / vui-hrd-info / slices=1 / no-opt-qp-pps / no-opt-ref-list-length-pps / no-multi-pass-opt-rps / scenecut-bias=0.05 / no-opt-cu-delta-qp / no-aq-motion / no-hdr / no-hdr-opt / no-dhdr10-opt / no-idr-recovery-sei / analysis-reuse-level=5 / scale-factor=0 / refine-intra=0 / refine-inter=0 / refine-mv=1 / refine-ctu-distortion=0 / no-limit-sao / ctu-info=0 / no-lowpass-dct / refine-analysis-type=0 / copy-pic=1 / max-ausize-factor=1.0 / no-dynamic-refine / no-single-sei / no-hevc-aq / no-svt / no-field / qp-adaptation-range=1.00
Language                                 : English
Default                                  : Yes
Forced                                   : No

Audio
ID                                       : 2
Format                                   : MLP FBA 16-ch
Format/Info                              : Meridian Lossless Packing FBA with 16-channel presentation
Commercial name                          : Dolby TrueHD with Dolby Atmos
Codec ID                                 : A_TRUEHD
Duration                                 : 2 h 1 min
Bit rate mode                            : Variable
Bit rate                                 : 3 819 kb/s
Maximum bit rate                         : 7 158 kb/s
Channel(s)                               : 8 channels
Channel layout                           : L R C LFE Ls Rs Lb Rb
Sampling rate                            : 48.0 kHz
Frame rate                               : 1 200.000 FPS (40 SPF)
Compression mode                         : Lossless
Stream size                              : 3.25 GiB (36%)
Language                                 : English
Default                                  : No
Forced                                   : No
Number of dynamic objects                : 15
Bed channel count                        : 1 channel
Bed channel configuration                : LFE

Text
ID                                       : 3
Format                                   : PGS
Muxing mode                              : zlib
Codec ID                                 : S_HDMV/PGS
Codec ID/Info                            : Picture based subtitle format used on BDs/HD-DVDs
Duration                                 : 1 h 58 min
Bit rate                                 : 33.8 kb/s
Count of elements                        : 3480
Stream size                              : 28.6 MiB (0%)
Language                                 : English
Default                                  : Yes
Forced                                   : No

Menu
00:00:00.000                             : :Chapter 01
00:10:28.795                             : :Chapter 02
00:21:01.302                             : :Chapter 03
00:28:44.973                             : :Chapter 04
00:38:14.501                             : :Chapter 05
00:46:21.570                             : :Chapter 06
00:56:19.293                             : :Chapter 07
01:04:41.169                             : :Chapter 08
01:15:41.746                             : :Chapter 09
01:26:16.046                             : :Chapter 10
01:37:02.608                             : :Chapter 11
01:45:50.386                             : :Chapter 12
01:55:44.646                             : :Chapter 13




SCREENSHOTS










DOWNLOAD


You are not allowed to view links. Register or Login
 

 

SimplePortal 2.3.7 © 2008-2020, SimplePortal