ShareSpark

 

Author Topic: Interstellar (2014) IMAX (1080p BluRay x265 10bit Tigole) [6.5 GB]  (Read 197 times)

0 Members and 1 Guest are viewing this topic.

Offline Retrovirus

  • Topic Author
  • V.I.P.
  • Devoted Member
  • *
  • Thank You: 118
  • Reputation: 5
  • Activity:
    0%
  • Join Date: Dec 2019
  • Posts: 159
  • Gender: Male
Quote
Mankind was born on Earth. It was never meant to die here.

Interstellar (Movie 2014)
 

Director: Christopher Nolan
Stars: Ellen Burstyn, Matthew McConaughey, Mackenzie Foy, John Lithgow
 
Runtime: 169 min (taken from IMDb)
Genre: Adventure, Drama, Sci-Fi
 
Country: USA, UK, Canada
Released: 07 Nov 2014
 
Rating: 8.6 (may differ)
Votes: 1,363,875 (may differ)
 
Release Date: 07 Nov 2014 (taken from IMDb)
Viewer Rating (TV/MPAA): PG-13 (taken from IMDb)
 
Summary: A team of explorers travel through a wormhole in space in an attempt to ensure humanity's survival.
 
Links: You are not allowed to view links. Register or Login


MEDIA INFO


General
Unique ID                                : 12536654617361828169149659153451217346 (0x96E78CB5BBB198CC2F846CD465C71C2)
Complete name                            : Interstellar (2014) IMAX (1080p BluRay x265 10bit Tigole).mkv
Format                                   : Matroska
Format version                           : Version 4
File size                                : 6.48 GiB
Duration                                 : 2 h 49 min
Overall bit rate                         : 5 491 kb/s
Movie name                               : Interstellar
Encoded date                             : UTC 2019-01-14 19:57:44
Writing application                      : mkvmerge v26.0.0 ('In The Game') 64-bit
Writing library                          : libebml v1.3.6 + libmatroska v1.4.9

Video
ID                                       : 1
Format                                   : HEVC
Format/Info                              : High Efficiency Video Coding
Format profile                           : Main 10@L4@Main
Codec ID                                 : V_MPEGH/ISO/HEVC
Duration                                 : 2 h 49 min
Bit rate                                 : 5 001 kb/s
Width                                    : 1 920 pixels
Height                                   : 1 080 pixels
Display aspect ratio                     : 16:9
Frame rate mode                          : Constant
Frame rate                               : 23.976 (24000/1001) FPS
Color space                              : YUV
Chroma subsampling                       : 4:2:0
Bit depth                                : 10 bits
Bits/(Pixel*Frame)                       : 0.101
Stream size                              : 5.91 GiB (91%)
Writing library                          : x265 2.9+14-3023bd8b05c0:[Windows][GCC 8.2.1][64 bit] 10bit
Encoding settings                        : cpuid=1111039 / frame-threads=3 / numa-pools=8 / wpp / no-pmode / no-pme / no-psnr / no-ssim / log-level=2 / input-csp=1 / input-res=1920x1080 / interlace=0 / total-frames=243211 / level-idc=0 / high-tier=1 / uhd-bd=0 / ref=4 / no-allow-non-conformance / no-repeat-headers / annexb / no-aud / no-hrd / info / hash=0 / no-temporal-layers / open-gop / min-keyint=23 / keyint=250 / gop-lookahead=0 / bframes=4 / b-adapt=2 / b-pyramid / bframe-bias=0 / rc-lookahead=25 / lookahead-slices=4 / scenecut=40 / radl=0 / no-splice / no-intra-refresh / ctu=64 / min-cu-size=8 / rect / no-amp / max-tu-size=32 / tu-inter-depth=1 / tu-intra-depth=1 / limit-tu=0 / rdoq-level=2 / dynamic-rd=0.00 / no-ssim-rd / signhide / no-tskip / nr-intra=0 / nr-inter=0 / no-constrained-intra / strong-intra-smoothing / max-merge=3 / limit-refs=3 / limit-modes / me=3 / subme=3 / merange=57 / temporal-mvp / weightp / no-weightb / no-analyze-src-pics / deblock=0:0 / sao / no-sao-non-deblock / rd=4 / no-early-skip / rskip / no-fast-intra / no-tskip-fast / no-cu-lossless / no-b-intra / no-splitrd-skip / rdpenalty=0 / psy-rd=2.00 / psy-rdoq=1.00 / no-rd-refine / no-lossless / cbqpoffs=0 / crqpoffs=0 / rc=abr / bitrate=5000 / qcomp=0.60 / qpstep=4 / stats-write=0 / stats-read=2 / cplxblur=20.0 / qblur=0.5 / ipratio=1.40 / pbratio=1.30 / aq-mode=3 / aq-strength=1.00 / cutree / zone-count=0 / no-strict-cbr / qg-size=32 / no-rc-grain / qpmax=69 / qpmin=0 / no-const-vbv / sar=0 / overscan=0 / videoformat=5 / range=0 / colorprim=2 / transfer=2 / colormatrix=2 / chromaloc=0 / display-window=0 / max-cll=0,0 / min-luma=0 / max-luma=1023 / log2-max-poc-lsb=8 / vui-timing-info / vui-hrd-info / slices=1 / no-opt-qp-pps / no-opt-ref-list-length-pps / multi-pass-opt-rps / scenecut-bias=0.05 / no-opt-cu-delta-qp / aq-motion / no-hdr / no-hdr-opt / no-dhdr10-opt / no-idr-recovery-sei / analysis-reuse-level=5 / scale-factor=0 / refine-intra=0 / refine-inter=0 / refine-mv=0 / no-limit-sao / ctu-info=0 / no-lowpass-dct / refine-mv-type=0 / copy-pic=1 / max-ausize-factor=1.0 / no-dynamic-refine / no-single-sei
Default                                  : Yes
Forced                                   : No

Audio
ID                                       : 2
Format                                   : AAC LC
Format/Info                              : Advanced Audio Codec Low Complexity
Codec ID                                 : A_AAC-2
Duration                                 : 2 h 49 min
Bit rate                                 : 384 kb/s
Channel(s)                               : 6 channels
Channel layout                           : C L R Ls Rs LFE
Sampling rate                            : 48.0 kHz
Frame rate                               : 46.875 FPS (1024 SPF)
Compression mode                         : Lossy
Delay relative to video                  : 20 ms
Stream size                              : 458 MiB (7%)
Language                                 : English
Default                                  : Yes
Forced                                   : No

Text #1
ID                                       : 3
Format                                   : VobSub
Muxing mode                              : zlib
Codec ID                                 : S_VOBSUB
Codec ID/Info                            : Picture based subtitle format used on DVDs
Duration                                 : 2 h 47 min
Bit rate                                 : 10.2 kb/s
Count of elements                        : 2097
Stream size                              : 12.2 MiB (0%)
Language                                 : English
Default                                  : No
Forced                                   : No

Menu
00:00:00.000                             : en:Chapter 01
00:09:35.283                             : en:Chapter 02
00:17:12.281                             : en:Chapter 03
00:25:00.707                             : en:Chapter 04
00:35:45.101                             : en:Chapter 05
00:42:16.825                             : en:Chapter 06
00:50:19.558                             : en:Chapter 07
00:54:47.784                             : en:Chapter 08
00:58:59.369                             : en:Chapter 09
01:06:14.971                             : en:Chapter 10
01:17:28.018                             : en:Chapter 11
01:25:31.960                             : en:Chapter 12
01:34:31.957                             : en:Chapter 13
01:46:14.659                             : en:Chapter 14
01:55:34.510                             : en:Chapter 15
02:02:14.327                             : en:Chapter 16
02:12:56.802                             : en:Chapter 17
02:20:53.778                             : en:Chapter 18
02:35:12.052                             : en:Chapter 19
02:43:59.830                             : en:Chapter 20




SCREENSHOTS










DOWNLOAD


You are not allowed to view links. Register or Login
 
Thanks given by: himanshurajdeepak

 

SimplePortal 2.3.7 © 2008-2020, SimplePortal