ShareSpark

 

Author Topic: Marne Bhi Do Yaaron [2019] 720p HD Hindi-x264-DusIcTv  (Read 125 times)

0 Members and 1 Guest are viewing this topic.

Offline MrSky

  • Topic Author
  • V.I.P.
  • Hero Member
  • *
  • Thank You: 226
  • Reputation: 3
  • Activity:
    15.4%
  • Join Date: Dec 2019
  • Location: Did Not Tell This
  • Age: 49
  • Posts: 384
  • Gender: Male
  • =$ Success Never Ends $=
Marne Bhi Do Yaaron [2019] 720p HD Hindi-x264-DusIcTv
« on: January 14, 2020, 03:32:16 PM »








Format : Matroska
Format version : Version 4
File size : 905 MiB
Duration : 2 h 6 min
Overall bit rate : 997 kb/s


Video
Format : AVC
Format/Info : Advanced Video Codec
Format settings : CABAC / 12 Ref Frames
Format settings, CABAC : Yes
Format settings, Reference fra : 12 frames
Codec ID : V_MPEG4/ISO/AVC
Duration : 2 h 6 min
Bit rate : 899 kb/s
Width : 1 280 pixels
Height : 544 pixels
Display aspect ratio : 2.35:1
Frame rate mode : Constant
Frame rate : 25.000 FPS
Color space : YUV
Chroma subsampling : 4:2:0
Bit depth : 8 bits
Scan type : Progressive
Bits/(Pixel*Frame) : 0.052
Stream size : 815 MiB (90%)
Writing library : x264 core 157 r2935 545de2f

Audio
Format : AAC LC
Duration : 2 h 6 min
Bit rate : 96.0 kb/s
Channel(s) : 2 channels
Channel layout : L R
Sampling rate : 48.0 kHz
Frame rate : 46.875 FPS (1024 SPF)
Compression mode : Lossy
Delay relative to video : -101 ms
Stream size : 87.2 MiB (10%)
Language : Hindi






You are not allowed to view links. Register or Login

You are not allowed to view links. Register or Login



Don't Forget To Give Comments And Thanks...



 

Tags:
 

SimplePortal 2.3.7 © 2008-2020, SimplePortal