ShareSpark

 

Author Topic: Saand Ki Aankh (2019) 720p WEB-Rip x264 AAC - ESUB ~ Ranvijay - DusIcTv  (Read 202 times)

0 Members and 1 Guest are viewing this topic.

Offline MrSky

  • Topic Author
  • V.I.P.
  • Hero Member
  • *
  • Thanked: 239 times
  • Reputation: 4
  • Activity:
    0.2%
  • Join Date: Dec 2019
  • Location: Did Not Tell This
  • Age: 49
  • Posts: 385
  • Gender: Male
  • =$ Success Never Ends $=












General
Format : Matroska
Format version : Version 4 / Version 2
File size : 1.41 GiB
Duration : 2 h 20 min
Overall bit rate mode : Variable
Overall bit rate : 1 434 kb/s
Movie name : Saand Ki Aankh (2019) 720p WEB-Rip x264 AAC - ESUB ~ Ranvijay

Video
ID : 1
Format : AVC
Format/Info : Advanced Video Codec
Format settings : CABAC / 5 Ref Frames
Format settings, CABAC : Yes
Format settings, RefFrames : 5 frames
Format settings, GOP : M=4, N=25
Codec ID : V_MPEG4/ISO/AVC
Duration : 2 h 20 min
Bit rate mode : Variable
Bit rate : 1 329 kb/s
Maximum bit rate : 40.0 Mb/s
Width : 1 280 pixels
Height : 544 pixels
Display aspect ratio : 2.35:1
Frame rate mode : Constant
Frame rate : 25.000 FPS
Color space : YUV
Chroma subsampling : 4:2:0
Bit depth : 8 bits
Scan type : Progressive
Bits/(Pixel*Frame) : 0.076
Stream size : 1.31 GiB (93%)
Title : ~Ranvijay~

Audio
ID : 2
Format : AAC
Format/Info : Advanced Audio Codec
Format profile : LC
Codec ID : A_AAC-2
Duration : 2 h 20 min
Bit rate : 96.0 kb/s
Channel(s) : 2 channels
Channel positions : Front: L R
Sampling rate : 48.0 kHz
Frame rate : 46.875 FPS (1024 SPF)
Compression mode : Lossy
Stream size : 97.4 MiB (7%)
Title : ~Ranvijay~
Language : Hindi
Default : Yes
Forced : Yes

Text
ID : 3
Format : UTF-8
Codec ID : S_TEXT/UTF8
Codec ID/Info : UTF-8 Plain Text
Duration : 2 h 15 min
Bit rate : 58 b/s
Count of elements : 1934
Stream size : 58.4 KiB (0%)
Title : ~Ranvijay~
Language : English
Default : Yes
Forced : Yes









You are not allowed to view links. Register or Login

You are not allowed to view links. Register or Login


Don't Forget To Give Comments And Thanks...




 
The following users thanked this post: Mihalik

Tags:
 

SimplePortal 2.3.7 © 2008-2020, SimplePortal