ShareSpark

 

Author Topic: War 2019 Hindi 720p Pre-DVDRip x264 AAC { TaRa }  (Read 112 times)

0 Members and 1 Guest are viewing this topic.

Offline Special26

  • ***************
  • Elite Moderator
  • Special Member
  • *****
  • Topic Author
  • Thank You: 2141
  • Reputation: 64
  • Activity:
    84.4%
  • Join Date: Sep 2019
  • Location: Nepal
  • Age: 29
  • Posts: 825
  • Gender: Male
  • Love Forever !!
War 2019 Hindi 720p Pre-DVDRip x264 AAC { TaRa }
« on: October 04, 2019, 09:17:19 PM »
War 2019 Hindi 720p Pre-DVDRip x264 AAC { TaRa }





 :details:
Format                      : Matroska
Format version              : Version 4
File size                   : 1.20 GiB
Duration                    : 2 h 25 min
Overall bit rate            : 1 180 kb/s


Video
ID                          : 1
Format                      : AVC
Format/Info                 : Advanced Video Codec
Format profile              : Main@L4
Format settings             : CABAC / 4 Ref Frames
Format settings, CABAC      : Yes
Format settings, Reference  : 4 frames
Codec ID                    : V_MPEG4/ISO/AVC
Duration                    : 2 h 25 min
Bit rate                    : 1 026 kb/s
Width                       : 1 280 pixels
Height                      : 544 pixels
Display aspect ratio        : 2.35:1
Frame rate mode             : Constant
Frame rate                  : 25.000 FPS
Color space                 : YUV
Chroma subsampling          : 4:2:0
Bit depth                   : 8 bits
Scan type                   : Progressive
Bits/(Pixel*Frame)          : 0.059
Stream size                 : 1.03 GiB (86%)
Title                       : .....::::: TaRa :::::.....
Language                    : Hindi
Default                     : Yes
Forced                      : No


Audio
ID                          : 2
Format                      : AAC LC
Format/Info                 : Advanced Audio Codec
Codec ID                    : A_AAC-2
Duration                    : 2 h 25 min
Bit rate                    : 158 kb/s
Channel(s)                  : 2 channels
Channel layout              : L R
Sampling rate               : 44.1 kHz
Frame rate                  : 43.066 FPS (1024 SPF)
Compression mode            : Lossy
Delay relative to video     : -23 ms
Stream size                 : 164 MiB (13%)
Title                       : .....::::: TaRa :::::.....
Language                    : Hindi
Default                     : Yes
Forced                      : No




 :screens:







 :download2:
You are not allowed to view links. Register or Login
You are not allowed to view links. Register or Login
You are not allowed to view links. Register or Login
You are not allowed to view links. Register or Login

Say Thanks to this user: 
Thanks given by: TARAN BAURI, Bmr

Tags: