ShareSpark

 

Author Topic: Ertugrul.Ghazi.Urdu...Season.1-.Episode.(1-25)...1080p.WEB.DL.-.AVC.-.AAC.-.DUSIcTv  (Read 201 times)

0 Members and 1 Guest are viewing this topic.

Offline dc7800

  • Topic Author
  • Uploader
  • Semi Newbie
  • *
  • Thank You: 2
  • Reputation: 1
  • Activity:
    0%
  • Join Date: Dec 2019
  • Posts: 7
Ertugrul Ghazi Urdu   Season 1- Episode (1-25)   1080p WEB DL - AVC - AAC - DUSIcTv



Media info:
Code: You are not allowed to view links. Register or Login
General
Format : MPEG-4
Format profile : Base Media
Codec ID : isom (isom/iso2/avc1/mp41)
File size : 13.6 GB
Overall bit rate mode : Variable
Overall bit rate : 2 578 kb/s
Encoded date : UTC 2020-04-25 17:28:35
Tagged date : UTC 2020-04-25 17:28:35

Video
ID : 1
Format : AVC
Format/Info : Advanced Video Codec
Format profile : High@L4
Format settings : CABAC / 3 Ref Frames
Format settings, CABAC : Yes
Format settings, Reference frames : 3 frames
Codec ID : avc1
Codec ID/Info : Advanced Video Coding
Bit rate : 2 447 kb/s
Width : 1 920 pixels
Height : 1 080 pixels
Display aspect ratio : 16:9
Frame rate mode : Constant
Frame rate : 25.000 FPS
Color space : YUV
Chroma subsampling : 4:2:0
Bit depth : 8 bits
Scan type : Progressive
Bits/(Pixel*Frame) : 0.047
Stream size : 789 MiB (95%)
Title : ISO Media file produced by Google Inc.
Writing library : x264 core 155 r2901 7d0ff22
Encoded date : UTC 2020-04-25 17:28:35
Tagged date : UTC 2020-04-25 17:28:35
Color range : Limited
Color primaries : BT.601 NTSC
Transfer characteristics : BT.709
Matrix coefficients : BT.601
Codec configuration box : avcC

Audio
ID : 2
Format : AAC LC
Format/Info : Advanced Audio Codec Low Complexity
Codec ID : mp4a-40-2
Bit rate mode : Variable
Bit rate : 128 kb/s
Channel(s) : 2 channels
Channel layout : L R
Sampling rate : 44.1 kHz
Frame rate : 43.066 FPS (1024 SPF)
Compression mode : Lossy
Stream size : 41.3 MiB (5%)
Title : ISO Media file produced by Google Inc.
Default : Yes
Alternate group : 1
Encoded date : UTC 2020-04-25 17:15:33
Tagged date : UTC 2020-04-25 17:15:33

Screenshots:



Download:
Code: You are not allowed to view links. Register or Login
https://links-safety.com/o87bi5l5cpim5gu
 

Tags: ertugrul ghazi 
 

SimplePortal 2.3.7 © 2008-2020, SimplePortal