ShareSpark

 

Author Topic: [ OxTorrent.com ] Riddick.2013.extended.multi.1080p.bluray.x264-rough  (Read 764 times)

0 Members and 1 Guest are viewing this topic.

Offline JohnnySins

  • Topic Author
  • Uploader
  • Devoted Member
  • *
  • Thank You: 55
  • Reputation: 1
  • Activity:
    5.6%
  • Join Date: Feb 2020
  • Posts: 125
Riddick.2013.extended.multi.1080p.bluray.x264-rough


:info:
General
Complete name                            : E:\[ OxTorrent.com ] Riddick.2013.extended.multi.1080p.bluray.x264-rough.mkv
Format                                   : Matroska
Format version                           : Version 2
File size                                : 9.83 GiB
Duration                                 : 2 h 6 min
Overall bit rate                         : 11.1 Mb/s
Writing application                      : mkvmerge v4.1.1 ('Bouncin' Back') built on Jul  3 2010 22:54:08
Writing library                          : libebml v1.0.0 + libmatroska v1.0

Video
ID                                       : 1
Format                                   : AVC
Format/Info                              : Advanced Video Codec
Format profile                           : High@L4
Format settings                          : CABAC / 5 Ref Frames
Format settings, CABAC                   : Yes
Format settings, Reference frames        : 5 frames
Codec ID                                 : V_MPEG4/ISO/AVC
Duration                                 : 2 h 6 min
Bit rate                                 : 8 823 kb/s
Width                                    : 1 920 pixels
Height                                   : 800 pixels
Display aspect ratio                     : 2.40:1
Frame rate mode                          : Constant
Frame rate                               : 23.976 (24000/1001) FPS
Color space                              : YUV
Chroma subsampling                       : 4:2:0
Bit depth                                : 8 bits
Scan type                                : Progressive
Bits/(Pixel*Frame)                       : 0.240
Stream size                              : 7.62 GiB (78%)
Writing library                          : x264 core 140 r2377 1ca7bb9
Encoding settings                        : cabac=1 / ref=5 / deblock=1:0:0 / analyse=0x3:0x133 / me=umh / subme=8 / psy=1 / psy_rd=1.00:0.00 / mixed_ref=1 / me_range=16 / chroma_me=1 / trellis=1 / 8x8dct=1 / cqm=0 / deadzone=21,11 / fast_pskip=0 / chroma_qp_offset=-2 / threads=18 / lookahead_threads=3 / sliced_threads=0 / nr=0 / decimate=1 / interlaced=0 / bluray_compat=0 / constrained_intra=0 / bframes=3 / b_pyramid=2 / b_adapt=2 / b_bias=0 / direct=3 / weightb=1 / open_gop=0 / weightp=2 / keyint=250 / keyint_min=23 / scenecut=40 / intra_refresh=0 / rc_lookahead=50 / rc=2pass / mbtree=1 / bitrate=8823 / ratetol=1.0 / qcomp=0.60 / qpmin=0 / qpmax=69 / qpstep=4 / cplxblur=20.0 / qblur=0.5 / ip_ratio=1.40 / aq=1:1.00
Language                                 : English
Default                                  : Yes
Forced                                   : No

Audio #1
ID                                       : 2
Format                                   : DTS
Format/Info                              : Digital Theater Systems
Codec ID                                 : A_DTS
Duration                                 : 2 h 6 min
Bit rate mode                            : Constant
Bit rate                                 : 768 kb/s
Channel(s)                               : 6 channels
Channel layout                           : C L R Ls Rs LFE
Sampling rate                            : 48.0 kHz
Frame rate                               : 93.750 FPS (512 SPF)
Bit depth                                : 24 bits
Compression mode                         : Lossy
Stream size                              : 696 MiB (7%)
Title                                    : DTS 5.1
Language                                 : French
Default                                  : Yes
Forced                                   : No

Audio #2
ID                                       : 3
Format                                   : DTS
Format/Info                              : Digital Theater Systems
Codec ID                                 : A_DTS
Duration                                 : 2 h 6 min
Bit rate mode                            : Constant
Bit rate                                 : 1 509 kb/s
Channel(s)                               : 6 channels
Channel layout                           : C L R Ls Rs LFE
Sampling rate                            : 48.0 kHz
Frame rate                               : 93.750 FPS (512 SPF)
Bit depth                                : 24 bits
Compression mode                         : Lossy
Stream size                              : 1.34 GiB (14%)
Language                                 : English
Default                                  : No
Forced                                   : No

Text
ID                                       : 4
Format                                   : UTF-8
Codec ID                                 : S_TEXT/UTF8
Codec ID/Info                            : UTF-8 Plain Text
Language                                 : French
Default                                  : No
Forced                                   : No

Menu
00:00:00.000                             : en:00:00:00.000
00:05:35.418                             : en:00:05:35.418
00:12:10.521                             : en:00:12:10.521
00:23:27.364                             : en:00:23:27.364
00:27:56.425                             : en:00:27:56.425
00:32:11.221                             : en:00:32:11.221
00:38:03.698                             : en:00:38:03.698
00:44:20.283                             : en:00:44:20.283
00:48:40.876                             : en:00:48:40.876
00:56:19.668                             : en:00:56:19.668
01:01:16.673                             : en:01:01:16.673
01:07:35.093                             : en:01:07:35.093
01:15:23.436                             : en:01:15:23.436
01:19:58.836                             : en:01:19:58.836
01:26:51.832                             : en:01:26:51.832
01:31:27.107                             : en:01:31:27.107
01:39:32.717                             : en:01:39:32.717
01:45:32.701                             : en:01:45:32.701
01:53:45.652                             : en:01:53:45.652
02:02:56.160                             : en:02:02:56.160

 :download:
[ OxTorrent.com ] Riddick.2013.extended.multi.1080p.bluray.x264-rough.mkv
 You are not allowed to view links. Register or Login


 
Thanks given by: SAEED BAGBAN

Offline SAEED BAGBAN

  • Semi Newbie
  • *
  • Thank You: 6
  • Reputation: 0
  • Activity:
    2.4%
  • Join Date: Mar 2020
  • Age: 27
  • Posts: 14
  • Gender: Male
JohnnySins  BRO  A Million , Billion , Trillion , Quadrillion , Quintillion , Sextillion , Septillion , Octillion , Decillion , Zillion - Times THANKZ 4 Uploading - [ Riddick (2013) In 1080p ] Thank U I Really Appreciate Your HARD WORK.. I’m Eternally Grateful  4 Uploading My Requested Movies...
 

Tags:
 

SimplePortal 2.3.7 © 2008-2020, SimplePortal