ShareSpark

 

Author Topic: Rango (2011) 1080p BluRay Extended Cut [English]  (Read 277 times)

0 Members and 1 Guest are viewing this topic.

Offline JohnnySins

  • Topic Author
  • Uploader
  • Devoted Member
  • *
  • Thank You: 48
  • Reputation: 3
  • Activity:
    9.6%
  • Join Date: Feb 2020
  • Posts: 119
Rango (2011) 1080p BluRay Extended Cut [English]
« on: June 24, 2020, 08:28:41 PM »
Rango (2011) 1080p BluRay Extended Cut [English]



:info2:
General
Unique ID                                : 250089008546853301667020015094301800785 (0xBC25641AB0857CD6F060347772AD3951)
Complete name                            : Rango (2011) 1080p BluRay Extended Cut [English].mkv
Format                                   : Matroska
Format version                           : Version 4
File size                                : 11.8 GiB
Duration                                 : 1 h 51 min
Overall bit rate                         : 15.2 Mb/s
Movie name                               : Rango (2011) 1080p BluRay Extended Cut [English]
Encoded date                             : UTC 2020-06-24 11:50:10
Writing application                      : mkvmerge v46.0.0 ('No Deeper Escape') 64-bit
Writing library                          : libebml v1.3.10 + libmatroska v1.5.2

Video
ID                                       : 1
Format                                   : AVC
Format/Info                              : Advanced Video Codec
Format profile                           : High@L4.1
Format settings                          : CABAC / 5 Ref Frames
Format settings, CABAC                   : Yes
Format settings, Reference frames        : 5 frames
Codec ID                                 : V_MPEG4/ISO/AVC
Duration                                 : 1 h 51 min
Bit rate                                 : 13.6 Mb/s
Width                                    : 1 920 pixels
Height                                   : 800 pixels
Display aspect ratio                     : 2.40:1
Frame rate mode                          : Constant
Frame rate                               : 23.976 (24000/1001) FPS
Color space                              : YUV
Chroma subsampling                       : 4:2:0
Bit depth                                : 8 bits
Scan type                                : Progressive
Bits/(Pixel*Frame)                       : 0.370
Stream size                              : 10.7 GiB (90%)
Title                                    : Rango (2011) 1080p BluRay Extended Cut
Writing library                          : x264 core 115 r2008 4c552d8
Encoding settings                        : cabac=1 / ref=5 / deblock=1:-3:-3 / analyse=0x3:0x113 / me=tesa / subme=10 / psy=1 / psy_rd=1.10:0.00 / mixed_ref=1 / me_range=16 / chroma_me=1 / trellis=2 / 8x8dct=1 / cqm=0 / deadzone=21,11 / fast_pskip=0 / chroma_qp_offset=-2 / threads=12 / sliced_threads=0 / nr=0 / decimate=0 / interlaced=0 / bluray_compat=0 / constrained_intra=0 / bframes=6 / b_pyramid=2 / b_adapt=2 / b_bias=0 / direct=3 / weightb=1 / open_gop=0 / weightp=2 / keyint=250 / keyint_min=23 / scenecut=40 / intra_refresh=0 / rc=crf / mbtree=0 / crf=17.3 / qcomp=0.60 / qpmin=0 / qpmax=69 / qpstep=4 / ip_ratio=1.40 / pb_ratio=1.30 / aq=1:0.65
Language                                 : English
Default                                  : Yes
Forced                                   : Yes

Audio
ID                                       : 2
Format                                   : DTS
Format/Info                              : Digital Theater Systems
Codec ID                                 : A_DTS
Duration                                 : 1 h 51 min
Bit rate mode                            : Constant
Bit rate                                 : 1 509 kb/s
Channel(s)                               : 6 channels
Channel layout                           : C L R Ls Rs LFE
Sampling rate                            : 48.0 kHz
Frame rate                               : 93.750 FPS (512 SPF)
Bit depth                                : 24 bits
Compression mode                         : Lossy
Stream size                              : 1.18 GiB (10%)
Title                                    : English DTS 5.1
Language                                 : English
Default                                  : Yes
Forced                                   : Yes

Text
ID                                       : 3
Format                                   : UTF-8
Codec ID                                 : S_TEXT/UTF8
Codec ID/Info                            : UTF-8 Plain Text
Duration                                 : 1 h 44 min
Bit rate                                 : 61 b/s
Count of elements                        : 1309
Stream size                              : 47.2 KiB (0%)
Title                                    : SRT English
Language                                 : English
Default                                  : No
Forced                                   : No

Menu
00:00:00.000                             : :00:00:00.000
00:05:25.867                             : :00:05:25.867
00:10:34.217                             : :00:10:34.217
00:14:40.087                             : :00:14:40.087
00:19:24.455                             : :00:19:24.455
00:25:27.693                             : :00:25:27.693
00:29:51.289                             : :00:29:51.289
00:35:04.436                             : :00:35:04.436
00:38:03.615                             : :00:38:03.615
00:44:31.544                             : :00:44:31.544
00:49:27.881                             : :00:49:27.881
00:54:39.109                             : :00:54:39.109
01:03:26.177                             : :01:03:26.177
01:11:47.136                             : :01:11:47.136
01:17:02.701                             : :01:17:02.701
01:23:13.739                             : :01:23:13.739
01:29:04.297                             : :01:29:04.297
01:33:15.214                             : :01:33:15.214
01:39:33.551                             : :01:39:33.551
01:45:26.862                             : :01:45:26.862

:download:
Rango (2011) 1080p BluRay Extended Cut [English].mkv
You are not allowed to view links. Register or Login



 
Thanks given by: SAEED BAGBAN

Offline JohnnySins

  • Topic Author
  • Uploader
  • Devoted Member
  • *
  • Thank You: 48
  • Reputation: 3
  • Activity:
    9.6%
  • Join Date: Feb 2020
  • Posts: 119
Re: Rango (2011) 1080p BluRay Extended Cut [English]
« Reply #1 on: June 24, 2020, 08:29:46 PM »
You are not allowed to view links. Register or Login done
 
Thanks given by: SAEED BAGBAN

Offline SAEED BAGBAN

  • Semi Newbie
  • *
  • Thank You: 6
  • Reputation: 0
  • Activity:
    1.8%
  • Join Date: Mar 2020
  • Age: 27
  • Posts: 11
  • Gender: Male
Re: Rango (2011) 1080p BluRay Extended Cut [English]
« Reply #2 on: June 29, 2020, 06:51:16 PM »
JohnnySins  BRO  A Million , Billion , Trillion , Quadrillion , Quintillion , Sextillion , Septillion , Octillion , Decillion , Zillion - Times THANKZ 4 Uploading - { Rango (2011) In 1080p }  Thank U I Really Appreciate Your HARD WORK.. I’m Eternally Grateful  4 Uploading My Requested Movies...
 

Tags:
 

SimplePortal 2.3.7 © 2008-2020, SimplePortal