ShareSpark

 

Author Topic: The Bourne Complete Collection (2002 - 2016) 1080p BluRay x264 Dual Audio [Hindi - English] DD5.1 - Esub ~ Ranvijay  (Read 56 times)

0 Members and 1 Guest are viewing this topic.

Offline noobmaster69

  • Topic Author
  • Uploader
  • Semi Newbie
  • *
  • Thank You: 13
  • Reputation: 3
  • Activity:
    4.8%
  • Join Date: Apr 2020
  • Posts: 42
  • Gender: Male
The Bourne Complete Collection (2002 - 2016) 1080p BluRay x264 Dual Audio [Hindi - English] DD5.1 - Esub ~ Ranvijay



 :plot3:
The Bourne Ultimate Collection - Five action thrillers about the exploits of author Robert Ludlum's fictional assassin Jason Bourne in one set. In THE BOURNE IDENTITY, an amnesiac Bourne (Matt Damon) discovers a wealth of lethal forgotten talents while on the run from international agents. In THE BOURNE SUPREMACY, Bourne (Damon) must choose between a normal life with the woman he loves (Franka Potente) and a life of danger. In THE BOURNE ULTIMATUM, Bourne (Damon) copes with violent flashbacks as he struggles to make sense of his current assignment. In THE BOURNE LEGACY, Aaron Cross (Jeremy Renner) picks up Bourne's legacy after the latter escapes from Moscow. In the final installment JASON BOURNE, Bourne (Damon) gleans what he can about his mysterious father.

 :info2:

The Bourne Identity (2002) 1080p BluRay x264 Dual Audio [ Hindi DD5.1 - English DD5.1: You are not allowed to view links. Register or LoginYou are not allowed to view links. Register or Login
 - Esub ~ Ranvijay]Format                                   : Matroska
Format version                           : Version 4 / Version 2
File size                                : 5.05 GiB
Duration                                 : 1 h 58 min
Overall bit rate                         : 6 097 kb/s
Movie name                               : The Bourne Identity (2002) 1080p BluRay x264 Dual Audio [ Hindi DD5.1 - English DD5.1] - Esub ~ Ranvijay

Video
ID                                       : 1
Format                                   : AVC
Duration                                 : 1 h 58 min
Bit rate                                 : 5 000 kb/s
Width                                    : 1 920 pixels
Height                                   : 816 pixels
Display aspect ratio                     : 2.35:1
Frame rate mode                          : Constant
Frame rate                               : 23.976 (24000/1001) FPS
Stream size                              : 4.14 GiB (82%)
Title                                    : ~Ranvijay~

Audio #1
ID                                       : 2
Format                                   : AC-3
Bit rate mode                            : Constant
Bit rate                                 : 640 kb/s
Channel(s)                               : 6 channels
Channel positions                        : Front: L C R, Side: L R, LFE
Language                                 : Hindi


Audio #2
ID                                       : 3
Format                                   : AC-3
Bit rate mode                            : Constant
Bit rate                                 : 448 kb/s
Channel(s)                               : 6 channels
Channel positions                        : Front: L C R, Side: L R, LFE
Title                                    : ~Ranvijay~
Language                                 : English


Text
ID                                       : 4
Format                                   : PGS
Title                                    : ~Ranvijay~
Language                                 : English


The Bourne Supremacy (2004) 1080p BluRay x264 Dual Audio [Hindi DD5.1 - English DD5.1: You are not allowed to view links. Register or LoginYou are not allowed to view links. Register or Login
 - Esub ~ Ranvijay]Format                                   : Matroska
Format version                           : Version 4 / Version 2
File size                                : 4.62 GiB
Duration                                 : 1 h 48 min
Overall bit rate                         : 6 096 kb/s
Movie name                               : The Bourne Supremacy (2004) 1080p BluRay x264 Dual Audio [Hindi DD5.1 - English DD5.1] - Esub ~ Ranvijay

Video
ID                                       : 1
Format                                   : AVC
Format/Info                              : Advanced Video Codec
Duration                                 : 1 h 48 min
Bit rate                                 : 5 000 kb/s
Width                                    : 1 920 pixels
Height                                   : 816 pixels
Display aspect ratio                     : 2.35:1
Frame rate mode                          : Constant
Frame rate                               : 23.976 (24000/1001) FPS
Stream size                              : 3.79 GiB (82%)
Title                                    : ~Ranvijay~

Audio #1
ID                                       : 2
Format                                   : AC-3
Bit rate mode                            : Constant
Bit rate                                 : 640 kb/s
Channel(s)                               : 6 channels
Channel positions                        : Front: L C R, Side: L R, LFE
Title                                    : ~Ranvijay~
Language                                 : Hindi

Audio #2
ID                                       : 3
Format                                   : AC-3
Bit rate mode                            : Constant
Bit rate                                 : 448 kb/s
Channel(s)                               : 6 channels
Channel positions                        : Front: L C R, Side: L R, LFE
Title                                    : ~Ranvijay~
Language                                 : English

Text
ID                                       : 4
Format                                   : PGS
Title                                    : ~Ranvijay~


The Bourne Ultimatum (2007) 1080p BluRay x264 Dual Audio [ Hindi DD5.1 - English DD5.1: You are not allowed to view links. Register or LoginYou are not allowed to view links. Register or Login
 - Esub ~ Ranvijay]Format                                   : Matroska
Format version                           : Version 4 / Version 2
File size                                : 4.91 GiB
Duration                                 : 1 h 55 min
Overall bit rate                         : 6 091 kb/s
Movie name                               : The Bourne Ultimatum (2007) 1080p BluRay x264 Dual Audio [ Hindi DD5.1 - English DD5.1] - Esub ~ Ranvijay

Video
ID                                       : 1
Format                                   : AVC
Format/Info                              : Advanced Video Codec
Duration                                 : 1 h 55 min
Bit rate                                 : 5 000 kb/s
Width                                    : 1 920 pixels
Height                                   : 800 pixels
Display aspect ratio                     : 2.40:1
Frame rate mode                          : Constant
Frame rate                               : 23.976 (24000/1001) FPS
Title                                    : ~Ranvijay~

Audio #1
ID                                       : 2
Format                                   : AC-3
Bit rate mode                            : Constant
Bit rate                                 : 640 kb/s
Channel(s)                               : 6 channels
Channel positions                        : Front: L C R, Side: L R, LFE
Title                                    : ~Ranvijay~
Language                                 : Hindi

Audio #2
ID                                       : 3
Format                                   : AC-3
Bit rate mode                            : Constant
Bit rate                                 : 448 kb/s
Channel(s)                               : 6 channels
Channel positions                        : Front: L C R, Side: L R, LFE
Title                                    : ~Ranvijay~
Language                                 : English


Text
ID                                       : 4
Format                                   : PGS
Title                                    : ~Ranvijay~
Language                                 : English


The Bourne Legacy (2012) 1080p BluRay x264 Dual Audio [Hindi DTS 5.1 - English DD5.1: You are not allowed to view links. Register or LoginYou are not allowed to view links. Register or Login
 - Esub ~ Ranvijay]Format                                   : Matroska
Format version                           : Version 4 / Version 2
File size                                : 5.87 GiB
Duration                                 : 2 h 15 min
Overall bit rate                         : 6 225 kb/s
Movie name                               : The Bourne Legacy (2012) 1080p BluRay x264 Dual Audio [Hindi DTS 5.1 - English DD5.1] - Esub ~ Ranvijay

Video
ID                                       : 1
Format                                   : AVC
Format/Info                              : Advanced Video Codec
Duration                                 : 2 h 15 min
Bit rate                                 : 5 000 kb/s
Width                                    : 1 920 pixels
Height                                   : 800 pixels
Display aspect ratio                     : 2.40:1
Frame rate mode                          : Constant
Frame rate                               : 23.976 (24000/1001) FPS
Stream size                              : 4.71 GiB (80%)
Title                                    : ~Ranvijay~

Audio #1
ID                                       : 2
Format                                   : DTS
Bit rate mode                            : Constant
Bit rate                                 : 768 kb/s
Channel(s)                               : 6 channels
Channel positions                        : Front: L C R, Side: L R, LFE
Title                                    : ~Ranvijay~
Language                                 : Hindi

Audio #2
ID                                       : 3
Format                                   : AC-3
Bit rate mode                            : Constant
Bit rate                                 : 448 kb/s
Channel(s)                               : 6 channels
Channel positions                        : Front: L C R, Side: L R, LFE
Title                                    : ~Ranvijay~
Language                                 : English

Text
ID                                       : 4
Format                                   : PGS
Title                                    : ~Ranvijay~
Language                                 : English


Jason Bourne (2016) 1080p BluRay x264 Dual Audio [Hindi DD5.1 - English DD5.1: You are not allowed to view links. Register or LoginYou are not allowed to view links. Register or Login
 - Esub ~ Ranvijay]Format                                   : Matroska
Format version                           : Version 4 / Version 2
File size                                : 5.03 GiB
Duration                                 : 2 h 3 min
Overall bit rate                         : 5 841 kb/s
Movie name                               : Jason Bourne (2016) 1080p BluRay x264 Dual Audio [Hindi DD5.1 - English DD5.1] - Esub ~ Ranvijay

Video
ID                                       : 1
Format                                   : AVC
Duration                                 : 2 h 3 min
Bit rate                                 : 5 000 kb/s
Width                                    : 1 920 pixels
Height                                   : 804 pixels
Display aspect ratio                     : 2.40:1
Frame rate mode                          : Constant
Frame rate                               : 23.976 (24000/1001) FPS
Stream size                              : 4.30 GiB (86%)
Title                                    : ~Ranvijay~

Audio #1
ID                                       : 2
Format                                   : AC-3
Bit rate mode                            : Constant
Bit rate                                 : 384 kb/s
Channel(s)                               : 6 channels
Channel positions                        : Front: L C R, Side: L R, LFE
Title                                    : ~Ranvijay~
Language                                 : Hindi

Audio #2
ID                                       : 3
Format                                   : AC-3
Bit rate mode                            : Constant
Bit rate                                 : 448 kb/s
Channel(s)                               : 6 channels
Channel positions                        : Front: L C R, Side: L R, LFE
Title                                    : ~Ranvijay~
Language                                 : English

Text
ID                                       : 4
Format                                   : PGS
Title                                    : ~Ranvijay~
Language                                 : English


 :download2:

You are not allowed to view links. Register or Login
 
You are not allowed to view links. Register or Login
 
You are not allowed to view links. Register or Login
 
You are not allowed to view links. Register or Login
 
You are not allowed to view links. Register or Login
 

Credits To Original Uploader
If you like my post HIT:thanks: :rep:
 
Thanks given by: K.A.T.P.E.R, Adi7428, Vanshleodi

Offline Adi7428

  • Begginer
  • *
  • Thank You: 1
  • Reputation: 0
  • Activity:
    7.8%
  • Join Date: Dec 2019
  • Posts: 56
You are not allowed to view links. Register or Login please upload mission impossible all movies collection in 1080p Blu-ray dual audio by Ranvijay please....
 

Offline noobmaster69

  • Topic Author
  • Uploader
  • Semi Newbie
  • *
  • Thank You: 13
  • Reputation: 3
  • Activity:
    4.8%
  • Join Date: Apr 2020
  • Posts: 42
  • Gender: Male
You are not allowed to view links. Register or Login
You are not allowed to view links. Register or Login please upload mission impossible all movies collection in 1080p Blu-ray dual audio by Ranvijay please....

i don't have that Ranvijay version, i tried to leech torrent but no seed
but i have tombDoc HEVC version and i think u got that collection already
if not will provide that
If you like my post HIT:thanks: :rep:
 

Offline K.A.T.P.E.R

  • V.I.P.
  • Senior Member
  • *
  • Thank You: 163
  • Reputation: 10
  • Activity:
    10.6%
  • Join Date: Dec 2019
  • Posts: 274
Please Give a THANKS & Add some REP if you like my Uploads!
 

Offline Adi7428

  • Begginer
  • *
  • Thank You: 1
  • Reputation: 0
  • Activity:
    7.8%
  • Join Date: Dec 2019
  • Posts: 56
 :rep: :thanks:
You are not allowed to view links. Register or Login
You are not allowed to view links. Register or Login
You are not allowed to view links. Register or Login please upload mission impossible all movies collection in 1080p Blu-ray dual audio by Ranvijay please....

i don't have that Ranvijay version, i tried to leech torrent but no seed
but i have tombDoc HEVC version and i think u got that collection already
if not will provide that
 

Tags:
 

SimplePortal 2.3.7 © 2008-2020, SimplePortal