ShareSpark

 

Author Topic: Avengers: Endgame Open Matte (2019) 1080p BluRay x264 Dual Audio [Hindi DD5.1 - English DD5.1] - Noobmaster69  (Read 55 times)

0 Members and 1 Guest are viewing this topic.

Offline noobmaster69

  • Topic Author
  • Uploader
  • Semi Newbie
  • *
  • Thank You: 13
  • Reputation: 3
  • Activity:
    4.8%
  • Join Date: Apr 2020
  • Posts: 42
  • Gender: Male
Avengers: Endgame Open Matte (2019) 1080p BluRay x264 Dual Audio [Hindi DD5.1 - English DD5.1] - Noobmaster69



 :plot3:

After the devastating events of Avengers: Infinity War (2018), the universe is in ruins. With the help of remaining allies, the Avengers assemble once more in order to reverse Thanos’ actions and restore balance to the universe.

 :info2:

General
Complete name                            : Avengers: Endgame Open Matte (2019) 1080p BluRay x264 Dual Audio [Hindi DD5.1 - English DD5.1] - Noobmaster69.mkv
Format                                   : Matroska
Format version                           : Version 4 / Version 2
File size                                : 12.2 GiB
Duration                                 : 3 h 2 min
Overall bit rate mode                    : Variable
Overall bit rate                         : 9 576 kb/s
Writing application                      : Lavf57.83.100
Writing library                          : Lavf57.83.100

Video
ID                                       : 1
Format                                   : AVC
Format/Info                              : Advanced Video Codec
Format profile                           : High@L4.1
Format settings                          : CABAC / 4 Ref Frames
Format settings, CABAC                   : Yes
Format settings, ReFrames                : 4 frames
Codec ID                                 : V_MPEG4/ISO/AVC
Duration                                 : 3 h 2 min
Bit rate mode                            : Variable
Bit rate                                 : 9 000 kb/s
Maximum bit rate                         : 14.0 Mb/s
Width                                    : 1 920 pixels
Height                                   : 1 080 pixels
Display aspect ratio                     : 16:9
Frame rate mode                          : Constant
Frame rate                               : 23.976 (24000/1001) FPS
Standard                                 : Component
Color space                              : YUV
Chroma subsampling                       : 4:2:0
Bit depth                                : 8 bits
Scan type                                : Progressive
Bits/(Pixel*Frame)                       : 0.181
Stream size                              : 11.2 GiB (92%)

Language                                 : English
Default                                  : Yes
Forced                                   : No


Audio #1
ID                                       : 2
Format                                   : AC-3
Format/Info                              : Audio Coding 3
Codec ID                                 : A_AC3
Duration                                 : 3 h 2 min
Bit rate mode                            : Constant
Bit rate                                 : 224 kb/s
Channel(s)                               : 6 channels
Channel positions                        : Front: L C R, Side: L R, LFE
Sampling rate                            : 48.0 kHz
Frame rate                               : 31.250 FPS (1536 SPF)
Bit depth                                : 16 bits
Compression mode                         : Lossy
Delay relative to video                  : 2 s 712 ms
Stream size                              : 292 MiB (2%)
Title                                    : ~Ranvijay~
Language                                 : Hindi
Service kind                             : Complete Main
Default                                  : Yes
Forced                                   : Yes

Audio #2
ID                                       : 3
Format                                   : AC-3
Format/Info                              : Audio Coding 3
Codec ID                                 : A_AC3
Duration                                 : 3 h 2 min
Bit rate mode                            : Constant
Bit rate                                 : 384 kb/s
Channel(s)                               : 6 channels
Channel positions                        : Front: L C R, Side: L R, LFE
Sampling rate                            : 48.0 kHz
Frame rate                               : 31.250 FPS (1536 SPF)
Bit depth                                : 16 bits
Compression mode                         : Lossy
Stream size                              : 500 MiB (4%)
Title                                    : ~Ranvijay~
Language                                 : English
Service kind                             : Complete Main
Default                                  : No
Forced                                   : No


Menu
00:00:00.000                             : :One Last Surprise
00:08:03.000                             : :"To The Garden"
00:19:58.000                             : :Five Years Later
00:26:12.000                             : :"A Time Heist"
00:36:53.000                             : :"Time Travel Do-Over"
00:43:16.000                             : :"I Fixed It"
00:48:39.000                             : :Assembling The Avengers
00:57:31.000                             : :"Get The Stones, Get Them Back"
01:07:06.000                             : :Rogue Transmission
01:15:56.000                             : :New York, 2012
01:26:18.000                             : :Asgard, 2013
01:32:12.000                             : :Morag, 2014
01:38:48.000                             : :New Jersey, 1970
01:48:04.000                             : :Vormir, 2014
01:57:18.000                             : :"I Was Made For This"
02:04:51.000                             : :Thanos' Return
02:14:56.000                             : :Avengers Assemble
02:25:40.000                             : :One Of The 14,000,605
02:34:26.000                             : :"Part Of The Journey Is The End"
02:42:52.000                             : :"Clip All The Branches"
02:48:53.000                             : :End Credits

 :screenshots:










 :download2:

You are not allowed to view links. Register or Login

Credits To Ranvijay For Audio & KK650 For Video
« Last Edit: June 29, 2020, 10:38:55 PM by noobmaster69 »
If you like my post HIT:thanks: :rep:
 

Tags:
 

SimplePortal 2.3.7 © 2008-2020, SimplePortal