ShareSpark

 

Author Topic: White House Down 2013 1080p BluRay x264 {Multi Audio} {Hindi DD+2.0-Tam-Eng DD 5.1} MSub By~Hammer~| 6.22 GB |  (Read 1218 times)

0 Members and 1 Guest are viewing this topic.

Offline Saturnweb

  • Topic Author
  • V.I.P.
  • Devoted Member
  • *
  • Thank You: 258
  • Reputation: 30
  • Activity:
    0%
  • Join Date: Oct 2019
  • Posts: 152
  • Gender: Male

White House Down 2013 1080p BluRay x264 {Multi Audio} {Hindi DD+2.0-Tam-Eng DD 5.1} MSub By~Hammer~











New Audio Source


General
Format                                   : Matroska
Format version                           : Version 4 / Version 2
File size                                : 6.22 GiB
Duration                                 : 2 h 11 min
Overall bit rate                         : 6 765 kb/s
Movie name                               : White House Down 2013 1080p BluRay x264 {Multi Audio} {Hindi DD+2.0-Tam-Eng DD 5.1} MSub By~Hammer~
Bit rate                                 : 5 000 kb/s
Width                                    : 1 920 pixels
Height                                   : 800 pixels
Display aspect ratio                     : 2.40:1
Frame rate mode                          : Constant
Frame rate                               : 23.976 (24000/1001) FPS
Title                                    : ~EncodeR~Hammer~
Language                                 : English
Default                                  : Yes
Forced                                   : No

Audio #1
Format                                   : AC-3
Format/Info                              : Audio Coding 3
Codec ID                                 : A_AC3
Duration                                 : 2 h 11 min
Bit rate mode                            : Constant
Bit rate                                 : 224 kb/s
Channel(s)                               : 2 channels
Channel positions                        : Front: L R
Sampling rate                            : 48.0 kHz
Frame rate                               : 31.250 FPS (1536 SPF)
Bit depth                                : 16 bits
Compression mode                         : Lossy
Stream size                              : 211 MiB (3%)
Title                                    : Hindi Org DD 2.0 224 kbps By~Hammer~
Language                                 : Hindi
Default                                  : Yes
Forced                                   : No

Audio #2
Format                                   : E-AC-3
Format/Info                              : Enhanced Audio Coding 3
Codec ID                                 : A_EAC3
Duration                                 : 2 h 11 min
Bit rate mode                            : Constant
Bit rate                                 : 224 kb/s
Channel(s)                               : 2 channels
Channel positions                        : Front: L R
Sampling rate                            : 48.0 kHz
Frame rate                               : 187.500 FPS (256 SPF)
Compression mode                         : Lossy
Stream size                              : 211 MiB (3%)
Title                                    : Hindi Org DD+2.0 224 kbps By~Hammer~
Language                                 : Hindi
Default                                  : No
Forced                                   : No

Audio #3
Format                                   : AC-3
Format/Info                              : Audio Coding 3
Codec ID                                 : A_AC3
Duration                                 : 2 h 11 min
Bit rate mode                            : Constant
Bit rate                                 : 640 kb/s
Channel(s)                               : 6 channels
Channel positions                        : Front: L C R, Side: L R, LFE
Sampling rate                            : 48.0 kHz
Frame rate                               : 31.250 FPS (1536 SPF)
Bit depth                                : 16 bits
Compression mode                         : Lossy
Stream size                              : 602 MiB (9%)
Title                                    : Tamil Org DD+5.1 640 kbps By~Hammer~
Language                                 : Tamil
Default                                  : No
Forced                                   : No

Audio #4
Format                                   : AC-3
Format/Info                              : Audio Coding 3
Codec ID                                 : A_AC3
Duration                                 : 2 h 11 min
Bit rate mode                            : Constant
Bit rate                                 : 640 kb/s
Channel(s)                               : 6 channels
Channel positions                        : Front: L C R, Side: L R, LFE
Sampling rate                            : 48.0 kHz
Frame rate                               : 31.250 FPS (1536 SPF)
Bit depth                                : 16 bits
Compression mode                         : Lossy
Stream size                              : 602 MiB (9%)
Title                                    : English BD 5.1 640 kbps By~Hammer~
Language                                 : English
Default                                  : No
Forced                                   : No

Text #1
Format                                   : UTF-8
Codec ID                                 : S_TEXT/UTF8
Codec ID/Info                            : UTF-8 Plain Text
Duration                                 : 2 h 10 min
Bit rate                                 : 144 b/s
Count of elements                        : 1956
Stream size                              : 138 KiB (0%)
Title                                    : Hindi SRT
Language                                 : Hindi
Default                                  : Yes
Forced                                   : No

Text #2
Format                                   : UTF-8
Codec ID                                 : S_TEXT/UTF8
Codec ID/Info                            : UTF-8 Plain Text
Duration                                 : 2 h 4 min
Bit rate                                 : 72 b/s
Count of elements                        : 1922
Stream size                              : 65.7 KiB (0%)
Title                                    : Tamil SRT
Language                                 : Tamil
Default                                  : No
Forced                                   : No

Text #3
Format                                   : PGS
Muxing mode                              : zlib
Codec ID                                 : S_HDMV/PGS
Codec ID/Info                            : Picture based subtitle format used on BDs/HD-DVDs
Duration                                 : 2 h 4 min
Bit rate                                 : 21.2 kb/s
Count of elements                        : 3852
Stream size                              : 18.8 MiB (0%)
Title                                    : English PGS
Language                                 : English
Default                                  : No
Forced                                   : No

Text #4
Format                                   : PGS
Muxing mode                              : zlib
Codec ID                                 : S_HDMV/PGS
Codec ID/Info                            : Picture based subtitle format used on BDs/HD-DVDs
Duration                                 : 2 h 4 min
Bit rate                                 : 16.9 kb/s
Count of elements                        : 3892
Stream size                              : 15.0 MiB (0%)
Title                                    : Hindi PGS
Language                                 : Hindi
Default                                  : No
Forced                                   : No

Text #5
Format                                   : UTF-8
Codec ID                                 : S_TEXT/UTF8
Codec ID/Info                            : UTF-8 Plain Text
Duration                                 : 2 h 10 min
Bit rate                                 : 87 b/s
Count of elements                        : 2537
Stream size                              : 83.8 KiB (0%)
Title                                    : English  SRT
Language                                 : English
Default                                  : No
Forced                                   : No








G- Drive Downoad [/url]
You are not allowed to view links. Register or Login
You are not allowed to view links. Register or Login



The File Locker Download
You are not allowed to view links. Register or Login


Say Thanks to this user: 
Thanks given by: TheLonelyOne, Mic, User98, Ghost

Offline Ghost

  • Semi Newbie
  • *
  • Reputation: 0
  • Activity:
    1.2%
  • Join Date: Jan 2020
  • Posts: 10
upload more multi audios movies bro

Say Thanks to this user: 

Offline User98

  • Semi Newbie
  • *
  • Reputation: 0
  • Activity:
    0.4%
  • Join Date: Dec 2019
  • Posts: 6
To All the boys PS:I've loved before 1080p

Say Thanks to this user: 

Tags: