ShareSpark

 

Author Topic: Aika Kobayashi - Tough Heart(Music Video)][GB_JP][AVC][1080P]  (Read 130 times)

0 Members and 1 Guest are viewing this topic.

Online ʀᴅᴋɴɪɢʜᴛ-sʀ

  • Topic Author
  • V.I.P.
  • Legend Member
  • *
  • Thanked: 1849
  • Reputation: 71
  • Activity:
    100%
  • Join Date: Nov 2020
  • Location: ㅤㅤㅤㅤ
  • Age: Age
  • Posts: 1932
  • @RDKNIGHT-SR
Aika Kobayashi - Tough Heart(Music Video)][GB_JP][AVC][1080P]
« on: February 15, 2021, 07:49:57 PM »
Quote from: [RDKNIGHT-SR

You are not allowed to view links. Register or Login
You are not allowed to view links. Register or Login
You are not allowed to view links. Register or Login
You are not allowed to view links. Register or Login
You are not allowed to view links. Register or Login
You are not allowed to view links. Register or Login
You are not allowed to view links. Register or Login
You are not allowed to view links. Register or Login
You are not allowed to view links. Register or Login
You are not allowed to view links. Register or Login

 :rinfo:

Album: Tough Heart
Year: 2020
Singers - Aika Kobayashi
Genre: world (Japan)
Language: Japanese
Source: Digital album



 :details:


 General
Complete name             : -SWSUB--Aika Kobayashi - Tough Heart(Music Video)--GB_JP--AVC--1080P--MP4-.mp4
Format                    : MPEG-4
Format profile            : Base Media
File size                 : 172 MiB
Duration                  : 3 min 57 s
Overall bit rate mode     : Variable
Overall bit rate          : 6 072 kb/s
Encoded date              : UTC 2021-02-10 10:19:53
Tagged date               : UTC 2021-02-10 10:19:53

Video
ID                        : 1
Format                    : AVC
Format/Info               : Advanced Video Codec
Format profile            : High
Format level              : 5.2
Format settings, CABAC    : Yes
Format settings, Referenc : 4 frames
Codec ID                  : avc1
Duration                  : 3 min 57 s
Bit rate                  : 5 747 kb/s
Maximum bit rate          : 14.9 Mb/s
Width                     : 1 920 pixels
Height                    : 1 080 pixels
Display aspect ratio      : 16:9
Frame rate mode           : Constant
Frame rate                : 23.976 FPS
Color space               : YUV
Chroma subsampling        : 4:2:0
Bit depth                 : 8 bits
Scan type                 : Progressive
Bits/(Pixel*Frame)        : 0.116
Stream size               : 162 MiB (95%)
Writing library           : x264 core 148 r9999+99 Ultmate

Encoded date              : UTC 2021-02-10 10:19:53
Tagged date               : UTC 2021-02-10 10:20:00
Codec configuration box   : avcC

Audio
ID                        : 101
Format                    : AAC LC
Format/Info               : Advanced Audio Codec
Codec ID                  : mp4a-40-2
Duration                  : 3 min 57 s
Source duration           : 3 min 57 s
Bit rate mode             : Variable
Bit rate                  : 319 kb/s
Maximum bit rate          : 390 kb/s
Channel(s)                : 2 channels
Channel layout            : L R
Sampling rate             : 48.0 kHz
Frame rate                : 46.875 FPS (1024 SPF)
Compression mode          : Lossy
Stream size               : 9.00 MiB (5%)
Source stream size        : 9.00 MiB (5%)
Default                   : Yes
Alternate group           : 1
Tagged date               : UTC 2021-02-10 10:20:00


 :download:



You are not allowed to view links. Register or Login


Alternative Link


You are not allowed to view links. Register or Login


- [RDKNIGH-SR]™ -


0:0 ━━━━ ● ───────── 00.00

⇆ ◁ ㅤ ㅤ ❚❚ ㅤ ㅤ ▷ ↻



:yahoo:    ▁ ▂ ▃ ▅ ▆ ▇ █ 🅁🄳🄺🄽🄸🄶🄷🅃-🅂🅁 █ ▇ ▆ ▅ ▃ ▂   ▁ :yahoo:
 

Tags:
 

SimplePortal 2.3.7 © 2008-2021, SimplePortal