ShareSpark

 

Author Topic: Jolly LLB (2013) (1080p BluRay x265 Bandi) [QxR] [4.81 GB]  (Read 337 times)

0 Members and 1 Guest are viewing this topic.

Offline Retrovirus

  • Topic Author
  • V.I.P.
  • Devoted Member
  • *
  • Thanked: 159
  • Reputation: 5
  • Activity:
    0%
  • Join Date: Dec 2019
  • Posts: 158
  • Gender: Male
Jolly LLB (2013) (1080p BluRay x265 Bandi) [QxR] [4.81 GB]
« on: January 20, 2020, 11:56:15 PM »
Jolly LLB (2013)
 

Director: Subhash Kapoor
Stars: Arshad Warsi, Amrita Rao, Boman Irani, Saurabh Shukla
 
Runtime: 135 min (taken from IMDb)
Genre: Comedy, Drama
 
Country: India
Released: 15 Mar 2013
 
Rating: 7.5 (may differ)
Votes: 15,336 (may differ)
 
Release Date: 15 Mar 2013 (taken from IMDb)
Viewer Rating (TV/MPAA): Not Rated (taken from IMDb)
 
Summary: A small time lawyer files a PIL in court against his own idols case.
 
Links: You are not allowed to view links. Register or Login


MEDIA INFO


General
Unique ID                                : 146115601270785644072187363864923525780 (0x6DECD757C4226B0334AEFB320422D294)
Complete name                            : Jolly LLB (2013) (1080p BluRay x265 Bandi).mkv
Format                                   : Matroska
Format version                           : Version 4
File size                                : 4.82 GiB
Duration                                 : 2 h 8 min
Overall bit rate                         : 5 368 kb/s
Movie name                               : Jolly LLB (2013) (1080p BluRay x265 HEVC 10bit AAC 5.1 Bandi)
Encoded date                             : UTC 2020-01-17 22:05:14
Writing application                      : mkvmerge v42.0.0 ('Overtime') 64-bit
Writing library                          : libebml v1.3.10 + libmatroska v1.5.2
Writing Frontend                         : Bandi's StaxRip 2.0.6.0

Video
ID                                       : 1
Format                                   : HEVC
Format/Info                              : High Efficiency Video Coding
Format profile                           : Main [email protected]@Main
Codec ID                                 : V_MPEGH/ISO/HEVC
Duration                                 : 2 h 8 min
Bit rate                                 : 4 949 kb/s
Width                                    : 1 920 pixels
Height                                   : 816 pixels
Display aspect ratio                     : 2.35:1
Frame rate mode                          : Constant
Frame rate                               : 24.000 FPS
Color space                              : YUV
Chroma subsampling                       : 4:2:0
Bit depth                                : 10 bits
Bits/(Pixel*Frame)                       : 0.132
Stream size                              : 4.44 GiB (92%)
Writing library                          : x265 3.2+31-6b348d5b56d8:[Windows][GCC 9.2.1][64 bit] 10bit
Encoding settings                        : cpuid=1111039 / frame-threads=5 / numa-pools=32,0 / wpp / no-pmode / no-pme / no-psnr / no-ssim / log-level=2 / input-csp=1 / input-res=1920x816 / interlace=0 / total-frames=185072 / level-idc=0 / high-tier=1 / uhd-bd=0 / ref=5 / no-allow-non-conformance / no-repeat-headers / annexb / no-aud / no-hrd / info / hash=0 / no-temporal-layers / open-gop / min-keyint=24 / keyint=250 / gop-lookahead=0 / bframes=8 / b-adapt=2 / b-pyramid / bframe-bias=0 / rc-lookahead=80 / lookahead-slices=4 / scenecut=40 / hist-scenecut=0 / radl=0 / no-splice / no-intra-refresh / ctu=32 / min-cu-size=8 / no-rect / no-amp / max-tu-size=16 / tu-inter-depth=1 / tu-intra-depth=1 / limit-tu=0 / rdoq-level=2 / dynamic-rd=0.00 / no-ssim-rd / signhide / no-tskip / nr-intra=0 / nr-inter=0 / no-constrained-intra / no-strong-intra-smoothing / max-merge=4 / limit-refs=3 / limit-modes / me=3 / subme=5 / merange=57 / temporal-mvp / no-frame-dup / no-hme / weightp / weightb / no-analyze-src-pics / deblock=-3:0 / no-sao / no-sao-non-deblock / rd=4 / selective-sao=0 / no-early-skip / rskip / no-fast-intra / no-tskip-fast / no-cu-lossless / b-intra / no-splitrd-skip / rdpenalty=0 / psy-rd=2.00 / psy-rdoq=1.00 / no-rd-refine / no-lossless / cbqpoffs=0 / crqpoffs=0 / rc=crf / crf=21.8 / qcomp=0.60 / qpstep=4 / stats-write=0 / stats-read=0 / ipratio=1.40 / pbratio=1.30 / aq-mode=3 / aq-strength=1.00 / cutree / zone-count=0 / no-strict-cbr / qg-size=32 / no-rc-grain / qpmax=69 / qpmin=0 / no-const-vbv / sar=0 / overscan=0 / videoformat=5 / range=0 / colorprim=1 / transfer=1 / colormatrix=1 / chromaloc=0 / display-window=0 / cll=0,0 / min-luma=0 / max-luma=1023 / log2-max-poc-lsb=8 / vui-timing-info / vui-hrd-info / slices=1 / no-opt-qp-pps / no-opt-ref-list-length-pps / no-multi-pass-opt-rps / scenecut-bias=0.05 / hist-threshold=0.01 / no-opt-cu-delta-qp / no-aq-motion / no-hdr10 / no-hdr10-opt / no-dhdr10-opt / no-idr-recovery-sei / analysis-reuse-level=8 / scale-factor=0 / refine-intra=0 / refine-inter=0 / refine-mv=1 / refine-ctu-distortion=0 / no-limit-sao / ctu-info=0 / no-lowpass-dct / refine-analysis-type=0 / copy-pic=1 / max-ausize-factor=1.0 / no-dynamic-refine / no-single-sei / no-hevc-aq / no-svt / no-field / qp-adaptation-range=1.00 / no-scenecut-aware-qp
Default                                  : Yes
Forced                                   : No
Color range                              : Limited
Color primaries                          : BT.709
Transfer characteristics                 : BT.709
Matrix coefficients                      : BT.709

Audio
ID                                       : 2
Format                                   : AAC LC
Format/Info                              : Advanced Audio Codec Low Complexity
Codec ID                                 : A_AAC-2
Duration                                 : 2 h 8 min
Bit rate                                 : 401 kb/s
Channel(s)                               : 6 channels
Channel layout                           : C L R Ls Rs LFE
Sampling rate                            : 48.0 kHz
Frame rate                               : 46.875 FPS (1024 SPF)
Compression mode                         : Lossy
Delay relative to video                  : 20 ms
Stream size                              : 368 MiB (7%)
Language                                 : Hindi
Default                                  : No
Forced                                   : No

Text
ID                                       : 3
Format                                   : PGS
Muxing mode                              : zlib
Codec ID                                 : S_HDMV/PGS
Codec ID/Info                            : Picture based subtitle format used on BDs/HD-DVDs
Duration                                 : 2 h 4 min
Bit rate                                 : 41.6 kb/s
Count of elements                        : 3936
Stream size                              : 37.0 MiB (1%)
Title                                    : English
Language                                 : English
Default                                  : No
Forced                                   : No

Menu
00:00:00.000                             : en:1. Beginning (Credits) / Accident
00:05:25.250                             : en:2. Jolly's Argument
00:15:17.500                             : en:3. Ajnabi
00:17:57.042                             : en:4. Advocate Rajpal
00:27:12.583                             : en:5. P.I.I. Filed
00:35:27.167                             : en:6. A Dignified Witness
00:48:00.583                             : en:7. Daru Peeke Nachna
00:51:38.750                             : en:8. Jolly Mislead
01:06:51.500                             : en:9. Becomes Aggressive
01:17:38.333                             : en:10. War of Words
01:25:20.292                             : en:11. Jolly Attacked
01:31:55.417                             : en:12. Hans Ki Chaal
01:34:26.417                             : en:13. In Search of Evidence
01:41:14.792                             : en:14. The Actual Eye Witness
01:53:01.917                             : en:15. The Words of Truth
02:05:40.208                             : en:16. Jhooth Boliya / End (Credits)




SCREENSHOTS









DOWNLOAD



You are not allowed to view links. Register or Login
 
The following users thanked this post: ʀᴅᴋɴɪɢʜᴛ-sʀ

Online ʀᴅᴋɴɪɢʜᴛ-sʀ

  • V.I.P.
  • Legend Member
  • *
  • Thanked: 1849
  • Reputation: 71
  • Activity:
    100%
  • Join Date: Nov 2020
  • Location: ㅤㅤㅤㅤ
  • Age: Age
  • Posts: 1907
  • @RDKNIGHT-SR
Re: Jolly LLB (2013) (1080p BluRay x265 Bandi) [QxR] [4.81 GB]
« Reply #1 on: February 23, 2021, 03:29:15 PM »
 :heart:
0:0 ━━━━ ● ───────── 00.00

⇆ ◁ ㅤ ㅤ ❚❚ ㅤ ㅤ ▷ ↻



:yahoo:    ▁ ▂ ▃ ▅ ▆ ▇ █ 🅁🄳🄺🄽🄸🄶🄷🅃-🅂🅁 █ ▇ ▆ ▅ ▃ ▂   ▁ :yahoo:
 

Tags: 1080p 10bit bluray x265 hevc 
 

SimplePortal 2.3.7 © 2008-2021, SimplePortal