ShareSpark

 

Author Topic: Deewana Mastana (1997) [MUSIC VIDEO ALBUM] DVDRip 1080p AVC AC3 ESUBS by blendar  (Read 330 times)

0 Members and 1 Guest are viewing this topic.

Offline blendar

  • Topic Author
  • V.I.P.
  • Devoted Member
  • *
  • Thanked: 330
  • Reputation: 26
  • Activity:
    1.8%
  • Join Date: Dec 2019
  • Posts: 110
  • Gender: Male
Deewana Mastana (1997) [MUSIC VIDEO ALBUM] DVDRip 1080p AVC AC3 ESUBS by blendar





 :info:

General
Format                                   : Matroska
Format version                           : Version 4
File size                                : 214 MiB
Duration                                 : 5 min 15 s
Overall bit rate                         : 5 669 kb/s
Movie name                               : Head Ya Tail by blendar
Encoded date                             : UTC 2020-07-27 19:00:43
Writing application                      : mkvmerge v48.0.0 ('Fortress Around Your Heart') 64-bit
Writing library                          : libebml v1.4.0 + libmatroska v1.6.0

Video
ID                                       : 1
Format                                   : AVC
Format/Info                              : Advanced Video Codec
Format profile                           : [email protected]
Format settings                          : CABAC / 4 Ref Frames
Format settings, CABAC                   : Yes
Format settings, Reference frames        : 4 frames
Codec ID                                 : V_MPEG4/ISO/AVC
Duration                                 : 5 min 15 s
Bit rate                                 : 5 475 kb/s
Width                                    : 1 920 pixels
Height                                   : 1 080 pixels
Display aspect ratio                     : 16:9
Frame rate mode                          : Constant
Frame rate                               : 23.976 (23976/1000) FPS
Original frame rate                      : 23.976 (24000/1001) FPS
Color space                              : YUV
Chroma subsampling                       : 4:2:0
Bit depth                                : 8 bits
Scan type                                : Progressive
Bits/(Pixel*Frame)                       : 0.110
Stream size                              : 206 MiB (97%)
Title                                    : blendar
Default                                  : Yes
Forced                                   : No

Audio
ID                                       : 2
Format                                   : AC-3
Format/Info                              : Audio Coding 3
Commercial name                          : Dolby Digital
Codec ID                                 : A_AC3
Duration                                 : 5 min 15 s
Bit rate mode                            : Constant
Bit rate                                 : 192 kb/s
Channel(s)                               : 2 channels
Channel layout                           : L R
Sampling rate                            : 48.0 kHz
Frame rate                               : 31.250 FPS (1536 SPF)
Compression mode                         : Lossy
Delay relative to video                  : 29 ms
Stream size                              : 7.23 MiB (3%)
Title                                    : blendar
Service kind                             : Complete Main
Default                                  : Yes
Forced                                   : No

Text
ID                                       : 3
Format                                   : UTF-8
Codec ID                                 : S_TEXT/UTF8
Codec ID/Info                            : UTF-8 Plain Text
Duration                                 : 1 min 26 s
Bit rate                                 : 19 b/s
Count of elements                        : 8
Stream size                              : 212 Bytes (0%)
Title                                    : blendar
Language                                 : English
Default                                  : No
Forced                                   : No



 :screenshots:


















 :download2:

SINGLE TRACKS

1.Yeh Gaya Woh Gaya by blendar.mkv - 185.01 MB
 You are not allowed to view links. Register or Login

2.Tere Bina Dil Lagta Nahin by blendar.mkv - 128.42 MB
 You are not allowed to view links. Register or Login

3.O Mummy Mummy by blendar.mkv - 233.64 MB
 You are not allowed to view links. Register or Login

4.Head Ya Tail by blendar.mkv - 213.55 MB
 You are not allowed to view links. Register or Login

5.Dil Chaahe Kisi Se by blendar.mkv - 130.34 MB
 You are not allowed to view links. Register or Login

6.Hungama Ho Gaya by blendar.mkv - 194.14 MB
 You are not allowed to view links. Register or Login

7.Tere Bina Dil Lagta Nahin (Version 2) by blendar.mkv - 158.84 MB
 You are not allowed to view links. Register or Login

8.Head Ya Tail (End Roll) by blendar.mkv - 70.84 MB
 You are not allowed to view links. Register or Login




ZIP LINK

Deewana Mastana (1997) [MUSIC VIDEO ALBUM] DVDRip 1080p AVC AC3 ESUBS by blendar.zip - 1.28 GB
 
You are not allowed to view links. Register or Login



 :heart: :heart: :heart:
« Last Edit: October 01, 2020, 07:06:07 PM by blendar »
 
The following users thanked this post: Subhadra, pbhavesh

Offline jabelkhan

  • Semi Newbie
  • *
  • Thanked: 8
  • Reputation: 0
  • Activity:
    2.6%
  • Join Date: Apr 2020
  • Posts: 34
file not download show User Rate Limit Exceeded
 

Offline blendar

  • Topic Author
  • V.I.P.
  • Devoted Member
  • *
  • Thanked: 330
  • Reputation: 26
  • Activity:
    1.8%
  • Join Date: Dec 2019
  • Posts: 110
  • Gender: Male
You are not allowed to view links. Register or Login
file not download show User Rate Limit Exceeded

FIXED
 

Offline jabelkhan

  • Semi Newbie
  • *
  • Thanked: 8
  • Reputation: 0
  • Activity:
    2.6%
  • Join Date: Apr 2020
  • Posts: 34
 

Offline Irfan Sallu

  • Newbie
  • *
  • Reputation: 0
  • Activity:
    0.2%
  • Join Date: May 2020
  • Posts: 1
Plz Upload Garv 2004 1080p Songs
 

Tags:
 

SimplePortal 2.3.7 © 2008-2020, SimplePortal