ShareSpark

 

Author Topic: The New Mutants [2020] 720p HDCAM-C1NEM4  (Read 380 times)

0 Members and 1 Guest are viewing this topic.

Offline NOOBMASTER

  • Topic Author
  • Uploader
  • Devoted Member
  • *
  • Thanked: 66
  • Reputation: 11
  • Activity:
    5.8%
  • Join Date: Apr 2020
  • Posts: 115
  • Gender: Male
The New Mutants [2020] 720p HDCAM-C1NEM4
« on: August 30, 2020, 01:11:29 PM »


Five young mutants, just discovering their abilities while held in a secret facility against their will, fight to escape their past sins and save themselves.
Genres: Action | Horror | Sci-Fi



 :details:

General
Complete name                            : The.New.Mutants.2020.720p.HDCAM-C1NEM4.mkv
Format                                   : Matroska
Format version                           : Version 4
File size                                : 1.98 GiB
Duration                                 : 1 h 27 min
Overall bit rate mode                    : Variable
Overall bit rate                         : 3 244 kb/s
 
Video
ID                                       : 1
Format                                   : AVC
Format/Info                              : Advanced Video Codec
Format profile                           : [email protected]
Format settings                          : CABAC / 6 Ref Frames
Format settings, CABAC                   : Yes
Format settings, Reference frames        : 6 frames
Codec ID                                 : V_MPEG4/ISO/AVC
Duration                                 : 1 h 27 min
Bit rate mode                            : Variable
Bit rate                                 : 3 000 kb/s
Width                                    : 1 280 pixels
Height                                   : 536 pixels
Display aspect ratio                     : 2.40:1
Frame rate mode                          : Constant
Frame rate                               : 30.000 FPS
Standard                                 : Component
Color space                              : YUV
Chroma subsampling                       : 4:2:0
Bit depth                                : 8 bits
Scan type                                : Progressive
Bits/(Pixel*Frame)                       : 0.146
Stream size                              : 1.81 GiB (91%)
Default                                  : Yes
Forced                                   : No
 
Audio
ID                                       : 2
Format                                   : AC-3
Format/Info                              : Audio Coding 3
Commercial name                          : Dolby Digital
Codec ID                                 : A_AC3
Duration                                 : 1 h 27 min
Bit rate mode                            : Constant
Bit rate                                 : 224 kb/s
Channel(s)                               : 2 channels
Channel layout                           : L R
Sampling rate                            : 48.0 kHz
Frame rate                               : 31.250 FPS (1536 SPF)
Bit depth                                : 16 bits
Compression mode                         : Lossy
Stream size                              : 140 MiB (7%)
Service kind                             : Complete Main
Default                                  : Yes
Forced                                   : No

 :screens:









 :download2:

You are not allowed to view links. Register or Login

If you like my post HIT:thanks: :rep:
 

Tags:
 

SimplePortal 2.3.7 © 2008-2020, SimplePortal